Shahid Butt | Kim Kong | 00-10000_maniacs_-_the_earth_pressed_flat_album_cover.jpg

The Age Of Shadows (2016) L impero delle ombre 720p H264 italian Ac3 5 1 Kor Ac3 sub ita eng MIRCrew torrent download

seeders: 34
leechers: 184
updated:
Added ago by robbyrs ***** in Movies
Torrent Downloaded 10 times.
Info Hash: FB8D458E071BBFB08D9E869AF85F423D1C696342


Torrent Files

The Age Of Shadows (2016) - L impero delle ombre 720p H264 italian Ac3-5 1 Kor Ac3 sub ita eng MIRCrew (Size: 2.4 GB)
  The Age Of Shadows (2016) - L impero delle ombre 720p H264 italian Ac3-5 1 Kor Ac3 sub ita eng MIRCrew 2.4 GB

Torrent Description



The Age Of Shadows (2016) - L impero delle ombre.720p.H264.italian.Ac3-5.1.kORAc3.sub.ita.eng.MIRCrew


NO FOUND ONLY ORIGINAL RELEASE



My release is always in double track audio italian and Original audio
for select it use VLC or dvd player home
not use wmp

ENGLISH SUBTITLE INSIDE

L'impero delle ombre - The Age Of Shadows (2016)

Quality MIRCrew on HD 720p da  2,4 gb







Titolo Originale: The Age of Shadows
Durata: 135 m.
Regista:  Ji Won Kim
Genere: Thriller
Nazionalità: Corea del Sud
Anno di Produzione: 2016



Byung-hun Lee, Kang-ho Song, Yoo Gong



Fine degli anni ‘20, occupazione giapponese della Corea. Lee Jung-chool, un coreano che presta servizio come poliziotto per il Giappone, riceve come incarico la missione speciale di scoprire la Virtuosa Fratellanza, ragione per cui inizia a seguire le tracce del suo leader Kim Woo-jin: in questa lotta tra fazioni opposte, i due uomini indagano alla ricerca di importanti informazioni reciproche...



Korean resistance fighters smuggle explosives to destroy facilities controlled by Japanese forces in this period action thriller.











[spoiler]
General
Unique ID                                : 188354953782485916641146848413663644714 (0x8DB3D8357FD9EAE485394E8C57244C2A)
Complete name                            : L 'impero delle ombre - The Age Of Shadows (2016).720p.h264.ita.kor.sub.ita.eng - MIRCrew\L 'impero delle ombre - The Age Of Shadows (2016).720p.h264.ita.kor.sub.ita.eng - MIRCrew.mkv
Format                                   : Matroska
Format version                           : Version 2
File size                                : 2.42 GiB
Duration                                 : 2h 20mn
Overall bit rate                         : 2 468 Kbps
Movie name                               : MIRCrew
Encoded date                             : UTC 2018-05-25 19:19:31
Writing application                      : mkvmerge v5.4.0 ('Piper') built on Mar 10 2012 13:34:39
Writing library                          : Lavf54.63.100

Video
ID                                       : 1
Format                                   : AVC
Format/Info                              : Advanced Video Codec
Format profile                           : [email protected]
Format settings, CABAC                   : Yes
Format settings, ReFrames                : 2 frames
Codec ID                                 : V_MPEG4/ISO/AVC
Duration                                 : 2h 20mn
Bit rate                                 : 1 900 Kbps
Width                                    : 1 280 pixels
Height                                   : 528 pixels
Display aspect ratio                     : 2.40:1
Frame rate mode                          : Variable
Frame rate                               : 23.976 fps
Color space                              : YUV
Chroma subsampling                       : 4:2:0
Bit depth                                : 8 bits
Scan type                                : Progressive
Bits/(Pixel*Frame)                       : 0.117
Stream size                              : 1.81 GiB (75%)
Writing library                          : x264 core 130 r2273
Encoding settings                        : cabac=1 / ref=2 / deblock=1:0:0 / analyse=0x1:0x131 / me=hex / subme=7 / psy=1 / psy_rd=1.00:0.00 / mixed_ref=0 / me_range=16 / chroma_me=1 / trellis=1 / 8x8dct=0 / cqm=0 / deadzone=21,11 / fast_pskip=1 / chroma_qp_offset=-2 / threads=3 / lookahead_threads=1 / sliced_threads=0 / nr=0 / decimate=1 / interlaced=0 / bluray_compat=0 / constrained_intra=0 / bframes=3 / b_pyramid=0 / b_adapt=1 / b_bias=0 / direct=3 / weightb=1 / open_gop=0 / weightp=2 / keyint=230 / keyint_min=23 / scenecut=40 / intra_refresh=0 / rc_lookahead=40 / rc=abr / mbtree=1 / bitrate=1900 / ratetol=1.0 / qcomp=0.60 / qpmin=10 / qpmax=69 / qpstep=4 / vbv_maxrate=24000 / vbv_bufsize=24000 / nal_hrd=none / ip_ratio=1.40 / aq=1:1.00
Language                                 : Italian
Default                                  : Yes
Forced                                   : No
DURATION                                 : 02:20:30.005000000
NUMBER_OF_FRAMES                         : 202118
NUMBER_OF_BYTES                          : 11428544015
_STATISTICS_WRITING_APP                  : mkvmerge v9.7.1 ('Pandemonium') 64bit
_STATISTICS_WRITING_DATE_UTC             : 2018-05-24 04:42:08
_STATISTICS_TAGS                         : BPS DURATION NUMBER_OF_FRAMES NUMBER_OF_BYTES

Audio #1
ID                                       : 2
Format                                   : AC-3
Format/Info                              : Audio Coding 3
Mode extension                           : CM (complete main)
Codec ID                                 : A_AC3
Duration                                 : 2h 20mn
Bit rate mode                            : Constant
Bit rate                                 : 384 Kbps
Channel(s)                               : 2 channels
Channel positions                        : Front: L R
Sampling rate                            : 48.0 KHz
Bit depth                                : 16 bits
Compression mode                         : Lossy
Delay relative to video                  : -5ms
Stream size                              : 386 MiB (16%)
Title                                    : Ita. AC3 640 Kbps
Language                                 : Italian
Default                                  : Yes
Forced                                   : No
DURATION                                 : 02:20:30.336000000
NUMBER_OF_FRAMES                         : 263448
NUMBER_OF_BYTES                          : 674426880
_STATISTICS_WRITING_APP                  : mkvmerge v9.7.1 ('Pandemonium') 64bit
_STATISTICS_WRITING_DATE_UTC             : 2018-05-24 04:42:08
_STATISTICS_TAGS                         : BPS DURATION NUMBER_OF_FRAMES NUMBER_OF_BYTES

Audio #2
ID                                       : 3
Format                                   : AC-3
Format/Info                              : Audio Coding 3
Mode extension                           : CM (complete main)
Codec ID                                 : A_AC3
Duration                                 : 2h 20mn
Bit rate mode                            : Constant
Bit rate                                 : 192 Kbps
Channel(s)                               : 2 channels
Channel positions                        : Front: L C R, Side: L R, LFE
Sampling rate                            : 48.0 KHz
Bit depth                                : 16 bits
Compression mode                         : Lossy
Delay relative to video                  : -42ms
Stream size                              : 193 MiB (8%)
Title                                    : Kor
Default                                  : No
Forced                                   : No

Menu
00:00:00.000                             : :(01)00:00:00:000
00:09:10.049                             : :(02)00:09:10:049
00:17:22.458                             : :(03)00:17:22:458
00:28:49.436                             : :(04)00:28:49:436
00:36:12.170                             : :(05)00:36:12:170
00:45:07.121                             : :(06)00:45:07:121
00:55:59.898                             : :(07)00:55:59:898
01:03:56.541                             : :(08)01:03:56:541
01:12:24.715                             : :(09)01:12:24:715
01:21:55.785                             : :(10)01:21:55:785
01:30:53.114                             : :(11)01:30:53:114
01:39:47.648                             : :(12)01:39:47:648
01:49:32.357                             : :(13)01:49:32:357
01:59:34.000                             : :(14)01:59:34:000
02:04:51.108                             : :(15)02:04:51:108
02:16:20.046                             : :(16)02:16:20:046


[/spoiler]





Related Torrents

torrent name size age seed leech
297.76 MB 41 seconds 321 72
534.93 MB 41 seconds 296 24
1.35 GB 41 seconds 234 264
2.4 GB 43 seconds 698 83
1.6 GB 43 seconds 683 146

Sharing Widget


Download torrent
2.4 GB
seeders:1214
leechers:386
The Age Of Shadows (2016) - L impero delle ombre 720p H264 italian Ac3-5 1 Kor Ac3 sub ita eng MIRCrew



To share this torrent use the code below and insert it into comments, status messages, forum posts or your signature.

Torrent: The Age Of Shadows (2016) - L impero delle ombre 720p H264 italian Ac3-5 1 Kor Ac3 sub ita eng MIRCrew

Comments

Latest Searches