Saison 1 Episode 16 | Bigfoot Horror Camp | The Warriors Gate 2017

Dokken Return to the East Live 2016 (2018)[BDRip 1080p x264 by alE13 AC3/PCM][Eng] torrent download

seeders: 23
leechers: 72
updated:
Added ago by alE13 ***** in Music
Torrent Downloaded 10 times.
Info Hash: C5AC6B3337B719A2DF4362367D4A973D0119671D


Torrent Files

Dokken-Return to the East Live 2016 (2018)[BDRip 1080p x264 by alE13 AC3/PCM][Eng] (Size: 9.1 GB)
  Dokken-Return to the East Live 2016 (2018)[BDRip 1080p x264 by alE13 AC3/PCM][Eng] 9.1 GB

Torrent Description





Audio PCM w osobnym pliku.
Plik zawiera Sample.



produkcja: Japan
gatunek: Rock
style: Concert, Hard Rock, Heavy Metal
premiera: 18-04-2018
czas: 1h 44min

opis:

At this point, Dokken simply needs no introduction. The band cemented their status as one
of the legendary hard rock/heavy metal archetypes of the ‘80s rock scene with numerous
successful albums and tours, evergreen songs and music videos and a lore that will live on forever.
The tumultuous relationship between band members is well documented and need not be repeated here,
but what does need to be made known is that in 2016, the classic original line-up of Don Dokken,
George Lynch, Jeff Pilson, and Mick Brown reunited to play the world famous Loud Park Festival in Japan.
Fortunately for fans outside of Japan, cameras were there to capture the performance and now Frontiers
is set to issue “Return To The East Live 2016” on CD/DVD, Blu-Ray, Box Set and Vinyl!

Dokken – amerykański zespół wykonujący heavy metal i hard rock, założony w 1978 roku. Grupa sprzedała ponad
10 milionów płyt na całym świecie.

więcej: http://pl.wikipedia.org/wiki/Dokken






obsada:

Don Dokken – Vocals; George Lynch – Guitars; Jeff Pilson – Bass; Mick Brown - Drums

tracklist:

1 Tooth And Nail
2 Unchain The Night
3 When Heaven Comes Down
4 Breakin’ The Chains
5 Into The Fire
6 Alone Again
7 It’s Not Love
8 Paris Is Burning
9 Kiss Of Death
10 The Hunter
11 Dream Warriors
12 In My Dreams
13 Behind The Scenes

- Setlist Discussion
- Will the Sun Rise Acoustic Rehearsal
- Don at Work
- George Lynch Interview
- Setlist Discussion
- Stage Left Song Ending
- Loud Park Staging
- The Hunter Stage Rehearsal
- Walcom / Jeff Thanks Crowd
- Backstage Pre-show
- Raising Loud Park Banner
- Meet & Greet

dane techniczne:

audio:

Dokken-Return to the East Live 2016 (2018)-alE13_PCM.mka

Hash: 4FD6E64F2F873D00
Format: Matroska
Czas: 01:44:52.450
Rozmiar: 1.13 GiB (1209934099)

Audio (0):
Kodek: (PCM) PCM
Format: PCM
Kanały: 2 channels
BitRate: 1 536 kb/s
Tytuł: Dokken: Return to the East Live 2016-alE13_PCM
Język: English

video:

Dokken-Return to the East Live 2016 (2018)-alE13.mkv
Format : Matroska
Format version : Version 4 / Version 2
File size : 7.93 GiB
Duration : 1 h 44 min
Overall bit rate : 10.8 Mb/s
Movie name : Dokken: Return to the East Live 2016 (2018)-alE13
Encoded date : UTC 2018-05-26 03:17:14
Writing application : mkvmerge v8.1.0 ('Psychedelic Postcard') 64bit
Writing library : libebml v1.3.1 + libmatroska v1.4.2
Cover : Yes
Attachments : Cover.jpg

Video
ID : 1
Format : AVC
Format/Info : Advanced Video Codec
Format profile : [email protected]
Format settings : CABAC / 2 Ref Frames
Format settings, CABAC : Yes
Format settings, ReFrames : 2 frames
Format settings, GOP : M=3, N=24
Codec ID : V_MPEG4/ISO/AVC
Duration : 1 h 44 min
Bit rate : 10.4 Mb/s
Width : 1 920 pixels
Height : 1 080 pixels
Display aspect ratio : 16:9
Frame rate mode : Constant
Frame rate : 29.970 (30000/1001) FPS
Color space : YUV
Chroma subsampling : 4:2:0
Bit depth : 8 bits
Scan type : Progressive
Bits/(Pixel*Frame) : 0.168
Stream size : 7.65 GiB (96%)
Title : Dokken: Return to the East Live 2016 (2018)-alE13
Writing library : x264 core 142
Default : Yes
Forced : No
Color range : Limited
Color primaries : BT.709
Transfer characteristics : BT.709
Matrix coefficients : BT.709

Audio
ID : 2
Format : AC-3
Format/Info : Audio Coding 3
Codec ID : A_AC3
Duration : 1 h 44 min
Bit rate mode : Constant
Bit rate : 384 kb/s
Channel(s) : 2 channels
Channel positions : Front: L R
Sampling rate : 48.0 kHz
Frame rate : 31.250 FPS (1536 SPF)
Bit depth : 16 bits
Compression mode : Lossy
Stream size : 288 MiB (4%)
Title : Dokken: Return to the East Live 2016 (2018)-alE13_AC3
Language : English
Service kind : Complete Main
Default : No
Forced : No




Related Torrents

torrent name size age seed leech
1.2 GB 16 seconds 410 290
852.0 MB 16 seconds 324 277
27.9 GB 16 seconds 281 487
308.8 MB 1 minute 110 95
4.25 GB 5 minutes 334 387

Sharing Widget


Download torrent
9.1 GB
seeders:1214
leechers:386
Dokken-Return to the East Live 2016 (2018)[BDRip 1080p x264 by alE13 AC3/PCM][Eng]



To share this torrent use the code below and insert it into comments, status messages, forum posts or your signature.

Torrent: Dokken-Return to the East Live 2016 (2018)[BDRip 1080p x264 by alE13 AC3/PCM][Eng]

Comments

Latest Searches