I Feel Pretty (2018) | Bungou Stray Dogs | Eps1 The 100 - Season 5 (2018)

Angry Birds (2016) BluRay 1080p Original DD5 1 [Hindi + Tamil + Eng] MovCr torrent download

seeders: 14
leechers: 7
updated:
Added ago by MovCr ***** in Movies
Torrent Downloaded 10 times.
Info Hash: A0ADEDF4BC3CE8B56D0E022EECD4B912ABF3C5BA


Torrent Files

Angry Birds (2016) BluRay - 1080p - Original DD5 1 - [Hindi + Tamil + Eng] - MovCr (Size: 1.8 GB)
  Angry Birds (2016) BluRay - 1080p - Original DD5 1 - [Hindi + Tamil + Eng] - MovCr 1.8 GB

Torrent Description



http://movcr.com

Angry Birds (2016) BluRay - 1080p - Original DD5.1 - [Hindi + Tamil + Eng] - MovCr


Video
ID : 1
Format : AVC
Format/Info : Advanced Video Codec
Format profile : [email protected]
Format settings, CABAC : Yes
Format settings, ReFrames : 4 frames
Codec ID : V_MPEG4/ISO/AVC
Duration : 1 h 37 min
Bit rate : 2 050 kb/s
Width : 1 920 pixels
Height : 1 024 pixels
Display aspect ratio : 1.85:1
Frame rate mode : Constant
Frame rate : 23.976 FPS
Color space : YUV
Chroma subsampling : 4:2:0
Bit depth : 8 bits
Scan type : Progressive
Bits/(Pixel*Frame) : 0.043
Stream size : 1.39 GiB (78%)
Title : www.MovCr.com
Writing library : x264 core 148
Encoding settings : cabac=1 / ref=4 / deblock=1:-1:-1 / analyse=0x3:0x133 / me=umh / subme=9 / psy=1 / psy_rd=1.00:0.15 / mixed_ref=1 / me_range=24 / chroma_me=1 / trellis=2 / 8x8dct=1 / cqm=0 / deadzone=21,11 / fast_pskip=0 / chroma_qp_offset=-3 / threads=12 / lookahead_threads=1 / sliced_threads=0 / nr=0 / decimate=1 / interlaced=0 / bluray_compat=0 / constrained_intra=0 / bframes=3 / b_pyramid=2 / b_adapt=2 / b_bias=0 / direct=3 / weightb=1 / open_gop=0 / weightp=2 / keyint=250 / keyint_min=23 / scenecut=40 / intra_refresh=0 / rc_lookahead=60 / rc=2pass / mbtree=1 / bitrate=2050 / ratetol=1.0 / qcomp=0.60 / qpmin=0 / qpmax=69 / qpstep=4 / cplxblur=20.0 / qblur=0.5 / vbv_maxrate=31250 / vbv_bufsize=31250 / nal_hrd=none / filler=0 / ip_ratio=1.40 / aq=1:1.00
Language : English
Default : Yes
Forced : No

Audio #1
ID : 2
Format : AC-3
Format/Info : Audio Coding 3
Mode extension : CM (complete main)
Format settings, Endianness : Big
Codec ID : A_AC3
Duration : 1 h 37 min
Bit rate mode : Constant
Bit rate : 224 kb/s
Channel(s) : 6 channels
Channel positions : Front: L C R, Side: L R, LFE
Sampling rate : 44.1 kHz
Frame rate : 28.711 FPS (1536 spf)
Bit depth : 16 bits
Compression mode : Lossy
Delay relative to video : -43 ms
Stream size : 156 MiB (9%)
Title : www.MovCr.com
Language : Hindi
Default : Yes
Forced : No

Audio #2
ID : 3
Format : AC-3
Format/Info : Audio Coding 3
Mode extension : CM (complete main)
Format settings, Endianness : Big
Codec ID : A_AC3
Duration : 1 h 37 min
Bit rate mode : Constant
Bit rate : 224 kb/s
Channel(s) : 6 channels
Channel positions : Front: L C R, Side: L R, LFE
Sampling rate : 44.1 kHz
Frame rate : 28.711 FPS (1536 spf)
Bit depth : 16 bits
Compression mode : Lossy
Delay relative to video : -43 ms
Stream size : 156 MiB (9%)
Title : www.MovCr.com
Language : Tamil
Default : No
Forced : No

Audio #3
ID : 4
Format : AAC
Format/Info : Advanced Audio Codec
Format profile : LC
Codec ID : A_AAC
Duration : 1 h 37 min
Bit rate : 121 kb/s
Channel(s) : 2 channels
Channel positions : Front: L R
Sampling rate : 48.0 kHz
Frame rate : 46.875 FPS (1024 spf)
Compression mode : Lossy
Delay relative to video : -43 ms
Stream size : 84.1 MiB (5%)
Title : www.MovCr.com
Language : English
Default : No
Forced : No

Text
ID : 5
Format : UTF-8
Codec ID : S_TEXT/UTF8
Codec ID/Info : UTF-8 Plain Text
Duration : 1 h 32 min
Bit rate : 90 b/s
Count of elements : 2275
Stream size : 61.3 KiB (0%)
Title : www.MovCr.com
Language : English
Default : Yes
Forced : No





Related Torrents

torrent name size age seed leech
1.5 GB 5 minutes 527 229
29.9 MB 5 minutes 549 476
273.3 MB 5 minutes 692 321
2.0 GB 5 minutes 332 32
617.34 MB 5 minutes 60 89

Sharing Widget


Download torrent
1.8 GB
seeders:1214
leechers:386
Angry Birds (2016) BluRay - 1080p - Original DD5 1 - [Hindi + Tamil + Eng] - MovCr



To share this torrent use the code below and insert it into comments, status messages, forum posts or your signature.

Torrent: Angry Birds (2016) BluRay - 1080p - Original DD5 1 - [Hindi + Tamil + Eng] - MovCr

Comments

Latest Searches